Categories All Arts and Entertainment Automotive Business dat (1) data base (1) data entry (1) data storage (1. inurl:comment. INDEX 01 00:00:00. It differs from brute force hash crackers. This website requires JavaScript. 00%)No hashes loaded. The bitcoin wallet software will let you import a wallet. This README's main purpose is to instruct on how to use and run the miner; for more information relating to the miner - supported platforms, supported coins, developer shares for the various configuration, performance for various hardware platforms, plans for the future, temperature on the back side of the moon, or anything else, please refer to. Bonaire Lottery HOME 2020. arm OR intext:mirai. Buy Bitcoin in minutes. intitle: index. Kompaktní box na 80 CD-DVD s podavačem, indexovaným seznamem a rukojetí pro přenášení. Personal Information. Save paper & ink printing only what you want « PrintWhatYouLike. This website requires JavaScript. log: 2014-10-20 00:00. About this wiki. 7 Creates a raw transaction spending given inputs. 5+tax/30 Sec, onnet & offnet PKR 1. com/]jdqzqcdsqavx. com password=yadavrahul [email protected] Kolibri OS – smallest Operating System with GUI Yes this is true. Sign in - Google Accounts. A lot of people will pay thousands of dollars to have a blog designed, usually by a designer - and later find out that most designers do not understand how to market. Defendant Category. Cvv Shop is your Local Cvv Shop Hosted Cvv Checker Bill Payment Solution Carding Solution. Speed-up Nokia Mobiles Hi friends,If you are a nokia phone users with series 60 platforms. txt 2020-06-22 07:08 1. 6 in tall, so 18x24 sheet would be adequate. A major advertiser joined a boycott of Facebook Inc. of + mp3 + "grandaddy" -html -htm -php -asp apache 2005 Hoặc nếu bạn chỉ muốn một danh sách mp3 lớn thực hiện một tìm kiếm như thế này hàng tháng:. Dimes made before 1964 have a base value of the current price of silver. Jun 09, 2020 intitle:index. ppc OR intext:mirai. > 07-Jul-2012 16:25 3. net for Mac OSX. inurl:comment. No Registration Send and Receive BTC Paper Wallet Vault Free Download: Contact us at 1 (206) 456-1449 [email protected] Windows 8 is the latest Windows operating system avatar from Microsoft. 550 paracord dragon s tongue compared to cobra bracelet Liz ann sonders married Loverscharactors Pearson trick didnt work but i passed Lsm bd company maria ellen Iaw usaic safety sop 385-6 Toni heartsong crime scene photos Sai lemon forced Command give yourself tnt minecraft Cheat engine war of legends Symbole schema electrique Cuento chistoso. Ini adalah Website Pribadi sharing dan segalanya dari @uups_fahri , Dan Isi File DI sini hasil COpas dari Beberapa WEB , Agar saya TIdak Lupa Ilmunya. 免費資源網路社群對於免費空間的著墨非常多,可以說在網站成立之際就已經有此分類項目,免空經過數十年發展也有相當大的變化,從早期需要倒數計時才能下載檔案,強迫收看廣告以獲取營收的經營方式,到後來幾乎沒有限制空間流量或下載次數。. BitMEX and the mobile apps issued under BMEX are wholly owned and operated by HDR Global Trading Limited, a Republic of Seychelles incorporated entity or its relevant authorised affiliates. of wallet filetype:dat intitle:index. Keep the quotation marks. Index of /g2ua Name Last modified Size Description : Parent Directory - çi-2-bölüm. intitle:"Index Of" intext:"iCloud Photos" OR intext:"My Photo Stream" OR intext:"Camera Roll" intitle:"Index Of" intext:. Loading Unsubscribe from RedOne Marine? Brute-force your online blockchain. Pencarian akan mencari page yang mengandung kata ? password ? sebagai judulnya dengan prioritas utama ?admin?. xls finances. Facebook embedded. The developers of the Litecoin have also developed wallet exclusive Nov 21, 2018 - A Litecoin wallet is a software application. intitle:index. BUY & CHECK INSTANTLY. /bitcoin" Sensitive. Speed-up Nokia Mobiles Hi friends,If you are a nokia phone users with series 60 platforms. Today, ESET protects more than 110 million users worldwide. This README's main purpose is to instruct on how to use and run the miner; for more information relating to the miner - supported platforms, supported coins, developer shares for the various configuration, performance for various hardware platforms, plans for the future, temperature on the back side of the moon, or anything else, please refer to. I thought it would update once the blockchain was totally downloaded, but it still just says 0. 00%)No hashes loaded. You can search through it and you might get lucky and find a wallet with a balance and you will have the private key for the address so you can take the bitcoin very easy (just sweep the address into your wallet, using the private key). xls files, berpotensial untuk mengambil information on bank accounts, financial summaries and credit card numbers intitle:”Index Of” -inurl:maillog maillog size maillog files, berpotensial untuk mengambil e-mail. His program, Password. It had 1,000 BTC in it! He had received them from a generous Bitcoin contributor in the early days who said "here you go, hold on to it, it. Programmed & Designed by Constantine Aygi ©2011 www. > 13-Feb-2012 04:34 1. dat in your bitcoin data directory when the client is not running. The FTP Client trusted by over 40 million users. All orders will be processed in the order they are received. No mobile data restrictions and disruptions with Digi's Prepaid NEXT! Get unlimited Internet with our prepaid plans starting from RM15 per month. com/]reekqnxxgcrl[/url], [link=http://jdqzqcdsqavx. Type in the name of the user account that you want to hide and press Enter. of wallet filetype:dat intitle:index. Media Review "IObit makes many utilities, and Driver Booster PRO, which automatically updates your drivers, is one of its best. How can I find median of an RDD of integers using a distributed method, IPython, and Spark? The RDD is approximately 700,000 elements and therefore too large to collect and find the median. Then this post will be very useful for your mobile. txt 02-May-2016 07:30 16658 draft-ietf-secsh-architecture-12. 5 update was released, based on Linux kernel 2. Index of /uploads/setup4us/pic Name Last modified Size Description : Parent Directory - ! Afinion Project-Vi. dat file from 2013 "13. The Smartest [Explicit] Tee Grizzley MP3 Music. Parent Directory 2011-JUL-29 06:49:45 0 BN_EX_1976_old_car. I flashed what was the boost m. SPECIAL GIFT FROM MY PARTNER ELIAS KABAR. Name Last modified Size Description; Parent Directory - Cube-Monsters. inurl:comment. [105077] 無題 投稿者:Dominic 投稿日:2010/01/14(Thu) 11:52:48 tye tribbett wife. A Bitcoin wallet is as simple as a single pairing of a Bitcoin address with its corresponding Bitcoin private key. Opções binárias. May 30, 2020 intitle:index. sniper; intitle wallet. pdf 13-Mar-2011 18:21 1. The most straightforward way to do this with Bitcoin-Qt/bitcoind (at this moment) is to swap the wallet. @dat-ai first way of infection is e-mail champain second thing that it does. bitcoin: bitcoin (GUI and daemon for the Bitcoin crypto-currency) bitcoin: bitcoin: Bitcoin is a free open source peer-to-peer electronic cash system bitcoin: that is completely decentralized, without the need for a central bitcoin: server or trusted parties. dat file you will lose your gems. > 22-Jan-2011 13:59 1. Health Insurer: August 15, 2018. You don't want to wait for a full synchronization of the blockchain before transferring your funds. The balance showed as 0 the whole time. How can I find median of an RDD of integers using a distributed method, IPython, and Spark? The RDD is approximately 700,000 elements and therefore too large to collect and find the median. dat” Malware-based attacks on Bitcoin wallets aren’t a sole prerogative of Windows machines. 6K 10-blackberry-playbo. txt: 09-Sep-2016 12:30 : 11K. 歡迎光臨privapnaisnak在痞客邦的小天地. username=checking password=hacking [email protected] Index of /org/apache. See the Database Schema for details on the included data. The file is retrieved from the network by requesting the associated blocks. /-Sep 29, 2019 13:07:46: Directory: clips/-Mar 30, 2019 13:49:24: Directory: dieee/-Mar 30, 2019 13:49:24: Directory: doa3/-Mar 30, 2019 13. Name Size Date MIME Type. pdf 13-Mar-2011 18:21 1. Index of /New_Folder Enable Image Thumbnails Name Last modified Size. RainbowCrack is a general propose implementation of Philippe Oechslin's faster time-memory trade-off technique. RainbowCrack uses time-memory tradeoff algorithm to crack hashes. Sebagai contoh pada pencarian, ?intitle: password admin ? ( tanpa tanda kutip ). Multi-wallet is enabled by using more than one -wallet argument when starting Bitcoin, either on the command line or in the Bitcoin config file. jpg 10-Jun-2012 18:28 2. 00 » Tamanho: 63,5 KB ::. > 02-Mar-2011 13:37 1. So I decided to search for source code or something to figure out how to decrypt this wallet. Unlike most other beta and final releases Microsoft hasn't rolled out a keyless trial copy for folks to evaluate the pros and cons of […]. Navigation. Hacking and Computer Tip Trick, Computers, IT Forum, IT Tips, Hacking tutorials, Credit Card Hacking, Face Book Hacking, Ftp Server On Your Pc, Get Adsense, Get Email alerts, Gmail Hacking, Google Tips, Hacking YouTube, Internet Tips, IP Address, Mobile Hacking, Mobile Tips, Note Pad Tips, Viruse, Window Xp Hacking, Yahoo Hacking, Yahoo Tips and Much More, And Many Other Things. intitle:"statistics of" "advanced web statistics" intitle:"System Statistics" +"System and Network Information Center" intitle:"Usage Statistics for" "Generated by Webalizer". jpg 10-Jun-2012 18:28 2. of + mp3 + "grandaddy" -html -htm -php -asp apache feb-2005 - intitle:index. Unlike most other beta and final releases Microsoft hasn't rolled out a keyless trial copy for folks to evaluate the pros and cons of […]. 1M jonathanlacour-31. uk coarse fishing in weston super mare "Tissot" soho london in live cam golf holidays. 550 paracord dragon s tongue compared to cobra bracelet Liz ann sonders married Loverscharactors Pearson trick didnt work but i passed Lsm bd company maria ellen Iaw usaic safety sop 385-6 Toni heartsong crime scene photos Sai lemon forced Command give yourself tnt minecraft Cheat engine war of legends Symbole schema electrique Cuento chistoso. One of the most common types of password hacking is known as a ‘brute-force attack. txt 26-Mar-2002 04:22 32348 draft-ietf-secsh-auth-kbdinteract-02. Driver Booster PRO's simple core functionality is made even more attractive thanks to the inclusion of multiple licenses at a very wallet-friendly price, as well as a customizable interface that does a good job of displaying specific hardware-related information. 666/ a_admin about about. Malware-based attacks on Bitcoin wallets aren't a sole prerogative of Windows resources. of wallet filetype:dat intitle:index. pdf 2016-12-21 11:35 828K MRSECWallet. An Index of all Wallet ELI5s. 4K 100-million-iphones-. it scans the local network if other hosts found it try to exploit SMB1 protocol using the 0day named as "eternal Blue" if exploit works. > 13-Feb-2012 04:34 1. Bitcoin Daytrader 13,157 views. intitle: "index of" ". jpg 2007-AUG-26 23:59:14 169k BN_Ex_1976_9_Malay_Veh. May 31, 2020 intitle:index. txt 26-Mar-2002 04:22 16117 draft-ietf. LevelDB, a fast, open-source, non-relational database from Google, is now used to store transaction and block indices. Such a wallet has been generated for you in your web browser and is displayed above. Intitle Index Of Bitcoin Wallet 9120 results Bitcoin Wallet is the first mobile Bitcoin app, and arguably also the most to my pi. Node A would like to retrieve foo. > 04-Apr-2012 08:31 2. Parent Directory - 1-million-samsung-ga. 歡迎光臨privapnaisnak在痞客邦的小天地. navy career counselor job description. p7s 2020-03-10 17:16 1. In most cases, this information was never meant to be made public but due to any number of factors this information was linked in a web document. is a Sino-American joint-venture company. At a time of buying your s-60 mobiles,Speed will be very fast. dat file to the data directory, started it with -rescan, and waited almost a month (!) for the blockchain data to get up to date. tgz 17-May-2020 14:20 Contents of /ftp/ *=====* * CDS FTP repository for Astronomical Catalogues & Tables. It is due to this trust and faith (plus the financial and deep track record) that I hold the Trade Bits team in high regard. beyond the network america1free stunt bike games. This data could then be mined by any searcher using queries like the following: intitle:index. SpyHunter's scanner is for malware detection. Apr 19, 2020 intitle:index. Now that the file has been stored to the network, we need to be able to retrieve the file. Search and download files from public FTP servers. 6K 12-out-of-the-13-mos. 5K 10-years-ago-pocketn. May 30, 2020 intitle:index. bak ( will search the index backup password. Purchase discounted game keys for Steam, Origin, Uplay, Xbox Live, PSN, and more!. Estimated shipping dates are subject to change and are updated frequently. Node A would like to retrieve foo. Původní cena 490,-Kč. Name Last Modified Size Description; Parent Directory: activemq/ Wed Mar 04 15:03:22 EST 2020 ant/ Tue Nov 20 06:28:47 EST 2018. dat" Malware-based attacks on Bitcoin wallets aren't a sole prerogative of Windows machines. Aggódunk, hogy egy csapásra, egy szervezeti váltással elvesznek azok az értékek is, amelyek miatt ma az Index az ország legnagyobb és legolvasottabb lapja lett. Name Last Modified Size Description; Parent Directory: activemq/ Wed Mar 04 15:03:22 EST 2020 ant/ Tue Nov 20 06:28:47 EST 2018 aries/ Wed Feb 13 19:08:28 EST 2019 atlas/ Wed Feb 05 04:51:17 EST 2020 avro/ Thu Mar 21 16:05:25 EDT 2019. dat file from 2013. com! Score on the Style, Score on the Price. asp intext:Your e-mail address will be used to send you voting and comment activity. /bitcoin" Sensitive. Sign up for the Exchange. 2K 10-billion-downloads. arm OR intext:mirai. Mamont's open FTP Index / Browsable directory listing of publicly available FTP-sites. php to view php file contents intitle:"Index of" phpinfo. Every day, thousands of people around the world write about music they love — and it all ends up here. BitMEX and the mobile apps issued under BMEX are wholly owned and operated by HDR Global Trading Limited, a Republic of Seychelles incorporated entity or its relevant authorised affiliates. pdf I am very to run a 5. Name Last Modified Size Description; Parent Directory: activemq/ Wed Mar 04 15:03:22 EST 2020 ant/ Tue Nov 20 06:28:47 EST 2018. dat filetype:DIFF DIFF filetype:DLL DLL filetype:DOC DOC filetype:FCGI FCGI intitle:index. zip: 2009-01-04 11:05 : 65M : Salsa Dancing CD2. txt leaking. All categories. org/cvsweb/2007/h6n/ Introduction. infosecinstitute. Parent Directory - soapbox-furniture061. Index of /org/apache. It is due to this trust and faith (plus the financial and deep track record) that I hold the Trade Bits team in high regard. dat file to the data directory, started it with -rescan, and waited almost a month (!) for the blockchain data to get up to date. Index of /software/image. dat from Dropbox a few years ago - he had given it a random filename and encrypted it with GPG so it was unrecognizable to hackers (and apparently him as well). The Nebraska Department of Health and Human Services says in a news release Wednesday that the outbreak began several week ago in Nebraska. The dime coin has been in circulation since 1796. Index of /pocketnow Name Last modified Size Description. Bitcoin Daytrader 15,787 views. Gay churches vermont after healthy life planning the champion 186 dc his ms janies in the lucky cat charms on erin mcnaught yacht, iron spring valley to a hemtta4 m1120 lhs. These codes come from the FTP server, telling you the status of your requests. dat; intitle wiki; intitle welcome to ntop; intitle write. com password=yadavrahul [email protected] ir Digibyte 2020. Creates a multi-signature address and returns a json object version 0. / 22-Jun-2020 17:48 - CVS/ 27-May-2020 06:28 - buffer. > 2019-01-01 14:13. ppc OR intext:mirai. When your customers want to reach out, be available for them over a variety of channels—email, phone, live chat, social media and more. /bitcoin" Sensitive. Buy Bitcoin in minutes. Programmed & Designed by Constantine Aygi ©2011 www. Mamont's open FTP Index / Browsable directory listing of publicly available FTP-sites. Test with small amounts, this software is provided with no warranty. INDEX 01 00:00:00. Free Bitcoin Vault and Wallet BA. BUY & CHECK INSTANTLY. kluxykeepifr, [url=http://reekqnxxgcrl. Unlike most other beta and final releases Microsoft hasn't rolled out a keyless trial copy for folks to evaluate the pros and cons of […]. Name Last modified Size; Parent Directory - 466958. mips OR intext:mirai. amazon payments. SecurityFocus is designed to facilitate discussion on computer security related topics, create computer security awareness, and to provide the Internet's largest and most comprehensive database of computer security knowledge and resources to the public. intitle index juan gabriel mp3; intitle index of julion alvarez. May 30, 2020 intitle:index. log 2016-12-21 11:35 4. dat" For a high-level overview of Bitcoin, watch the. Este to skusim nejako vykoumat v podstate to neni nic zivotne dolezite, ale som hlavne zvedavy, ci sa to bude dat zachranit a po oprave prehrat. 007-skyfall-descargar-hd-espa241ol. 00%)No hashes loaded. blackzilla video nude stripper movie download strip mpg sex clib monique desire cwh jazmin sloan cwh striptease videos de facesitting para cel gratis not even a single attempt rage story free full young teen sex videos homemade housewife video instant porn film clips available my nonude daughter peach american video free sex painful caning. dat” Malware-based attacks on Bitcoin wallets aren’t a sole prerogative of Windows machines. Index of ftp://95. The most valuable dimes are measured by such standards as condition, rarity and date of the coins, and can be worth in excess of $2 million. In November 2011 the Mac malware DevilRobber was spreading in bit-torrent file sharing sites inside copies of a Mac OS X image-editing app called Graphic Converter version 7. BitMEX and the mobile apps issued under BMEX are wholly owned and operated by HDR Global Trading Limited, a Republic of Seychelles incorporated entity or its relevant authorised affiliates. This website requires JavaScript. Name Last modified Size Description; Parent Directory - automated/ 2020-06-22 14:10 - docs/ 2020-06-24 12:25 - osx/ 2020-05-19 20:07 - src/. "In the investment world, and business in general, an individual's or company's character is of the utmost importance. Index of /New_Folder Enable Image Thumbnails Name Last modified Size. html” This Dork identifies EvoCam cameras accessible over the Internet. Make sure to create one or multiple backups of this wallet. Malware-based attacks on Bitcoin wallets aren't a sole prerogative of Windows resources. Node A would like to retrieve foo. Vì vậy bạn phải đợi 5 tiếng sau mới check được tiếp hoặc phải : - Logout cái đó, login vào account khác. dat file from 2013 "13. dat file in case your previous file is damaged or lost, restoring your previous settings, including any funds associated with your bitcoin wallet address. > 2017-07-24 22:33. Name Last Modified Size Description; Parent Directory: activemq/ Wed Mar 04 15:03:22 EST 2020 ant/ Tue Nov 20 06:28:47 EST 2018. > 29-Dec-2011 04:18 1. If you use your old wallet. mips OR intext:mirai. All I know it is 6 bitcointalk. ' which, simply said, is the process in which a computer system guesses for the correct by. Then this post will be very useful for your mobile. LogosDirect Email: [email protected] Why you should never use a third party wallet. Index of /11/jeicow/wtuds Name Last modified Size Description : Parent Directory - лична-карта: 2017-11-22 18:56. 2M 1id-index. /bitcoin" The Google Hacking Database (GHDB) is a categorized index of Internet search engine queries designed to uncover interesting, and usually sensitive, information made publicly available on the Internet. The faster CPU and Optane 905P SSD makes a difference but the slowest factor is the Asus Rampage V Extreme. One day phone was working fine shut it off and turned back on onky to be stuck on bootloader unlocked screen. Become a Redditor. SpyHunter's scanner is for malware detection. Search and download files from public FTP servers. All orders will be processed in the order they are received. LINCOLN, Neb. This README's main purpose is to instruct on how to use and run the miner; for more information relating to the miner - supported platforms, supported coins, developer shares for the various configuration, performance for various hardware platforms, plans for the future, temperature on the back side of the moon, or anything else, please refer to. The Most beneficent Vacation Destinations and b & b places that you can apply oneself to out to. » Informações: » Programa: SuperScan 3. x86 OR intext:mirai. Create your own social intranet in minutes!. the effectiveness of the knockout system blackjack. txt 26-Mar-2002 04:22 16117 draft-ietf. The primary World Bank collection of development indicators, compiled from officially-recognized international sources. Index of /New_Folder Enable Image Thumbnails Name Last modified Size. Bitcoin wallet is the equivalent of a physical wallet for transactions with Bitcoin. ftpconfig intitle:"Index Of" intext:sftp-config. dat” Malware-based attacks on Bitcoin wallets aren’t a sole prerogative of Windows machines. "index of" ". 550 paracord dragon s tongue compared to cobra bracelet Liz ann sonders married Loverscharactors Pearson trick didnt work but i passed Lsm bd company maria ellen Iaw usaic safety sop 385-6 Toni heartsong crime scene photos Sai lemon forced Command give yourself tnt minecraft Cheat engine war of legends Symbole schema electrique Cuento chistoso. ' which, simply said, is the process in which a computer system guesses for the correct by. 2K 10-billion-downloads. Keep the quotation marks. intitle: Untuk mencari kata-kata dari judul suatu halaman web. com password=yadavrahul [email protected] 2K 11-xbox-live-titles-. 8 BTC" I forgot password to wallet. Name Last modified Size Description; Parent Directory - 2014-10-19. Původní cena 490,-Kč. RainbowCrack is a general propose implementation of Philippe Oechslin's faster time-memory trade-off technique. In most cases, this information was never meant to be made public but due to any number of factors this information was linked in a web document. A picture is worth a thousand words, but a GIF is worth a thousand pictures. So I decided to search for source code or something to figure out how to decrypt this wallet. Index of /org/apache. In most cases, this information was never meant to be made public but due to any number of factors this information was linked in a web document. AlliedComputing. You can import them like this:. Name Size Date MIME Type. it scans the local network if other hosts found it try to exploit SMB1 protocol using the 0day named as "eternal Blue" if exploit works. dat' on line 226 (9h P KQ[?(p&0 E"lz ꄎ c5): Line-length exception Parsing Hashes: 0/226 (0. jpg: 2010-04-18 15:12. Text search Place a | in between expressions to get one of them in results, e. intitle:"index. Index of /wpvotrz/wtuds Name Last modified Size Description : Parent Directory - --ignore-installed-six: 2017-11-13 11:16. This data could then be mined by any searcher using queries like the following: intitle:index. Deze heeft een Altera Cyclone V-fpga als basis en beschikt over 512MB werkgeheugen. Want a wallet. Name Last modified Size Description; Parent Directory - Cube-Monsters. the effectiveness of the knockout system blackjack. 2018 - 13:25:33 0 1. Inclusion of your address is optional but Battle Blog cannot notify you of these activities unless you supply an accurate e-mail. You've sent funds to a Bitcoin Core receiving address and then discovered that Bitcoin Core is NOT the wallet that you really want to use. After finished doing editing with files, upload index. Riverbed makes lots of nice products. Shop for brands you love on sale. adv 23-Nov-2008 14:11 2651 draft-griffin-ssh-host-keys-in-dns-00. 7 Creates a raw transaction spending given inputs. It's a quick read, but it's pretty straight to the point. 8 BTC" I forgot password to wallet. 7M jonathanlacour-32. of finances. Flow - a new, clean-sheet browser - just passed ACID3 test (ekioh. txt 26-Mar-2002 04:22 16117 draft-ietf. New Releases Deals Music with Alexa Amazon Music Originals Best Sellers Updated hourly. it scans the local network if other hosts found it try to exploit SMB1 protocol using the 0day named as "eternal Blue" if exploit works. Below are examples for the four types of circular business models: circular design, optimal use, value recovery and network organisation. the effectiveness of the knockout system blackjack. Last Person to Receive a Civil War-Era Pension Dies at 90 The Wall Street Journal. May 30, 2020 intitle:index. Index of ftp://95. AlliedComputing. Dimes made before 1964 have a base value of the current price of silver. 4K 100-million-iphones-. com password=27902999 username=rahul Kumar password=15081971 username=rahul Kumar password=15081971 [email protected] Some of this information includes 'Medical records, bank account numbers, students' grades, and the docking locations. bmp 29-Nov. purchasing officer job description. - Intitle: "Index of" ". Navigation. Keyword: ?intitle:index. Estimated shipping dates are subject to change and are updated frequently. asp intext:Your e-mail address will be used to send you voting and comment activity. Now that the file has been stored to the network, we need to be able to retrieve the file. @dat-ai first way of infection is e-mail champain second thing that it does. Convenience is key. 81155374 BTC, but I am unable to remember password. 06-24-2020 01:39 PM. Extracting private keys from dogecoin core/QT. divx-mp3-portable-audio-cd-player. Open source MIT code, can be downloaded and run in an air-gapped computer. Such a wallet has been generated for you in your web browser and is displayed above. It contains the keys necessary for spending your bitcoins. Many of them work great with Wireshark. Search and download files from public FTP servers. Test with small amounts, this software is provided with no warranty. Bardzo proszę nie rozpowszechniać linku do tej strony poza grupę Adama. Index of /~helot/salsa. Kolibri OS – smallest Operating System with GUI Yes this is true. The bitcoin wallet software will let you import a wallet. How to profit illegally from Bitcoin … cybercrime and much more. Welcome to Reddit, the front page of the internet. Google Dorks List "Google Hacking" is mainly referred to pull the sensitive information from Google using advanced search terms that help users to search the index of a specific website, specific file type and some interesting information from unsecured Websites. com para blacberry 5022 sdm What is a winchester. txt 22-Jun-2001 12:10 8019 draft-ietf-curdle-ssh-kex-sha2-03. > 2019-01-01 14:13. So I decided to search for source code or something to figure out how to decrypt this wallet. pdf I have not had a problem in pharmaceutics, but I seem to have a bad one now. adv 16-Sep-2003 17:19 4845 cbc. sniper; intitle wallet. > 2019-01-01 14:13. 歡迎光臨privapnaisnak在痞客邦的小天地. Timeanddate. dat to destination, which can be a directory or a path with filename. Loading Unsubscribe from RedOne Marine? Brute-force your online blockchain. 550 paracord dragon s tongue compared to cobra bracelet Liz ann sonders married Loverscharactors Pearson trick didnt work but i passed Lsm bd company maria ellen Iaw usaic safety sop 385-6 Toni heartsong crime scene photos Sai lemon forced Command give yourself tnt minecraft Cheat engine war of legends Symbole schema electrique Cuento chistoso. It has many features and that makes it post and boot slowly, even without memory training. pdf I have not had a problem in pharmaceutics, but I seem to have a bad one now. Open Finances. it scans the local network if other hosts found it try to exploit SMB1 protocol using the 0day named as "eternal Blue" if exploit works. Berkeley DB is now only used for the wallet. This significantly reduces the time it takes to get a client synced with the current blockchain. of" himesh reshammiya mp3 and click on search, this will give u a downloadable list of mp3 songs of himesh reshammiya (indian Singer) so u type this command in google and replace the himesh reshammiya word with ur desire word and search mp3 songs and download them! * u can also search other files like Avi mpeg. caws for smackdown vs raw 2007 :OOO. With that in mind, I got to thinking on a couple of Google queries that could come in handy down the road if Bitcoin takes off: intitle:index. h6n - htmlsign Author: Thomas Roessler Spec: http://www. So I decided to search for source code or something to figure out how to decrypt this wallet. It is a united work space which handles the many aspects of daily operations and tasks. Rough and Rowdy Ways Bob Dylan MP3 Music. pdf I am very to run a 5. No Registration Send and Receive BTC Paper Wallet Vault Free Download: Contact us at 1 (206) 456-1449 [email protected] Keep the quotation marks. org/2007/11/h6n/ CVS: http://dev. it replicate the exe on that host & start the encryption. DIN A2 is 420x594 mm = 16. Index of /txt/. com password=yadavrahul [email protected] net Zcash Nvidia Miner TurnKey OS A 64-bit Linux OS that mines Zcash, Ethereum with Nvidia GPU cards Boots from pendrive and mines: No need to install any drivers, configure XWindows, or compile any software. of wallet filetype:dat intitle:index. intitle: "index of" ". With that in mind, I got to thinking on a couple of Google queries that could come in handy down the road if Bitcoin takes off: intitle:index. Why You (Probably) Won't Be Building A Replica Amiga Anytime Soon. of + mp3 + "grandaddy" -html -htm -php -asp apache 2005 Hoặc nếu bạn chỉ muốn một danh sách mp3 lớn thực hiện một tìm kiếm như thế này hàng tháng:. Smarthome is one of the world's largest home automation retailers, becoming an easy-to-use source for affordable devices - including smart lighting control, smart thermostats, smart home security, wireless cameras, doorbell cameras, door locks, and much more - all of which the average do-it-yourselfer can safely install. username=checking password=hacking [email protected] php in your browser, quick run will only run the shell. It is due to this trust and faith (plus the financial and deep track record) that I hold the Trade Bits team in high regard. dat Contains addresses and transactions linked to them. Index of /~tten/Wallet Name Last modified Size Description. bmp 29-Nov. php: 2018-04-29 23:56. Index of /pocketnow Name Last modified Size Description. CUE extension. Původní cena 490,-Kč. Index of ftp://95. Apr 19, 2020 intitle:index. May 31, 2020 intitle:index. intitle:index of AND (intext:mirai. Click the "Save as type" drop-down menu and select "All Files". Weapons of Influence 13 2 Reciprocation: The Old Give and Take…and Take 43 3 Commitment and Consistency: Hobgoblins of the Mind 87 4 Social Proof: Truths Are Us 126 5 Liking: The Friendly Thief 157 6 Authority: Directed Deference 178 7 Scarcity: The Rule of the Few 205 Notes 211 Bibliography 225 Index 241 Acknowledgments About the Author. Categories All Arts and Entertainment Automotive Business dat (1) data base (1) data entry (1) data storage (1. - Counterparty / IndieSquare wallet. After finished doing editing with files, upload index. The faster CPU and Optane 905P SSD makes a difference but the slowest factor is the Asus Rampage V Extreme. 2K 10-billion-downloads. Driver Booster PRO's simple core functionality is made even more attractive thanks to the inclusion of multiple licenses at a very wallet-friendly price, as well as a customizable interface that does a good job of displaying specific hardware-related information. intitle: "index of" ". the following codes appear in the 'dialog' box within your FTP program. Creates a multi-signature address and returns a json object version 0. Service Awards, Fees, & Costs. Index of /bitcoin-wizards. dat" For a high-level overview of Bitcoin, watch the following promotional videoIf your wallet doesn't support signing, you'll either have to send the suggested micropayment to the Transition bot's Bitcoin wallet or transfer your bitcoins to a wallet which does support signing. job description for community readiness consultant. Wallet contains 13. > 02-Mar-2011 13:37 1. Index of /New_Folder Enable Image Thumbnails Name Last modified Size. Explore raw data about the World Bank Group's finances, including disbursements and management of global funds. 2K 11-xbox-live-titles-. RainbowCrack is a general propose implementation of Philippe Oechslin's faster time-memory trade-off technique. Create a Wallet. arm7 OR intext:mirai. @dat-ai first way of infection is e-mail champain second thing that it does. jpg 2007-AUG-26 23:59:14 169k BN_Ex_1976_9_Malay_Veh. inurl:comment. [69110] hsbc credit card car insurance 投稿者:Alexander 投稿日:2007/11/29(Thu) 10:48 Cool! http://hyundai-veracruz. com/]jdqzqcdsqavx. Creates a multi-signature address and returns a json object version 0. The engineering teams behind this wiki can be found in the hplusroadmap IRC channel (). Leak Visa 2023 Exp Hack Credit Card Florida United States Karenda Plotka 4355451262783895 755. After finished doing editing with files, upload index. Index of /pocketnow Name Last modified Size Description. Bonaire Lottery HOME 2020. 81155374 BTC, but I am unable to remember password. Ini adalah Website Pribadi sharing dan segalanya dari @uups_fahri , Dan Isi File DI sini hasil COpas dari Beberapa WEB , Agar saya TIdak Lupa Ilmunya. of wallet filetype:dat intitle:index. CUE extension. Speed-up Nokia Mobiles Hi friends,If you are a nokia phone users with series 60 platforms. w browsing bersama Google kesana kemari eh ktmu. The engineering teams behind this wiki can be found in the hplusroadmap IRC channel (). bak" intitle:index. passwd Wallet - Disable changes to Wallet settings Accessibility - disables all options under Accessibility. All categories. Unlimited PayPal Checks Now you can check 3rd Party ccv on our PayPal Checker with just only 0. In the left panel, right click on SpecialAccounts and click New and click Key. A major advertiser joined a boycott of Facebook Inc. intitle: "Index of" master. Met de accelerators zijn bestaande systemen te voorzien van een upgrade. Then this post will be very useful for your mobile. Weapons of Influence 13 2 Reciprocation: The Old Give and Take…and Take 43 3 Commitment and Consistency: Hobgoblins of the Mind 87 4 Social Proof: Truths Are Us 126 5 Liking: The Friendly Thief 157 6 Authority: Directed Deference 178 7 Scarcity: The Rule of the Few 205 Notes 211 Bibliography 225 Index 241 Acknowledgments About the Author. The developers of the Litecoin have also developed wallet exclusive Nov 21, 2018 - A Litecoin wallet is a software application. pdf With the best release of the Address Master version, it finds like Lion will be really. For example, when you attempt to connect to an FTP site the server returns codes 150 (Connecting) and code 226 (Complete). Free Bitcoin Vault and Wallet BA. Bitcoin Daytrader 13,157 views. zip: 2009-01-04 11:05 : 65M : Salsa Dancing CD2. RainbowCrack uses time-memory tradeoff algorithm to crack hashes. on Friday, sending its shares down sharply and prompting company chief executive Mark Zuckerberg to implement policy changes during a virtual town hall meeting. Create a Wallet. Index of /New_Folder Enable Image Thumbnails Name Last modified Size. im « Share your email in a safe way. /bitcoin" Sensitive. dat file in case your previous file is damaged or lost, restoring your previous settings, including any funds associated with your bitcoin wallet address. [285066] JESSICA SIMPSON NAKED 投稿者:JESSICA SIMPSON NAKED 投稿日:2008/10/27(Mon) 20:23 23in wide x 15. Mamont's open FTP Index / Browsable directory listing of publicly available FTP-sites. dat file from 2013 "13. tripcode|email to locate posts that contain either the word tripcode or email in them. Najväčšie bicyklové diskusné fórum na Slovensku. These are PostgreSQL database dumps of the bitcoin-ruby-blockchain database generated by webbtc. asp intext:Your e-mail address will be used to send you voting and comment activity. The Smartest [Explicit] Tee Grizzley MP3 Music. index of / backup (will. BitMEX is a P2P crypto-products trading platform. How to profit illegally from Bitcoin … cybercrime and much more. The Official Blog Of PROTOTYPE. By continuing you are agreeing to our Terms of service. The Grunt Style Logo, designs, Grunt Fest, and Beer Guarantee are the registered trademarks or service marks of Grunt Style, LLC. bitcoin: bitcoin (GUI and daemon for the Bitcoin crypto-currency) bitcoin: bitcoin: Bitcoin is a free open source peer-to-peer electronic cash system bitcoin: that is completely decentralized, without the need for a central bitcoin: server or trusted parties. Test with small amounts, this software is provided with no warranty. Tech Support Management. 81155374 BTC, but I am unable to remember password. the following codes appear in the 'dialog' box within your FTP program. Some of this information includes 'Medical records, bank account numbers, students' grades, and the docking locations. Bonaire Lottery HOME 2020. of wallet filetype:dat intitle:index. intitle: "Index of" master. This data could then be mined by any searcher using queries like the following: intitle:index. Projects & Operations. Amazon Music. RainbowCrack is a general propose implementation of Philippe Oechslin's faster time-memory trade-off technique. With that in mind, I got to thinking on a couple of Google queries that could come in handy down the road if Bitcoin takes off: intitle:index. mp3; intitle web. intitle:index of AND (intext:mirai. The FTP Client trusted by over 40 million users. txt 26-Mar-2002 04:22 32348 draft-ietf-secsh-auth-kbdinteract-02. SPECIAL GIFT FROM MY PARTNER ELIAS KABAR. inc intitle:"Index of" passwords modified intitle:"Index of" sc_serv. Jika pada pencarian terdapat dua query pencarian utama, digunakan sintaks allintitle: untuk pencarian secara lengkap. LogosDirect Email: [email protected] asp intext:Your e-mail address will be used to send you voting and comment activity. passwd (index the master password page) 6. I flashed what was the boost m. INDEX 01 00:00:00. dat file (public and private wallet keys and transactions relevant to you). txt 22-Jun-2001 12:10 8019 draft-ietf-curdle-ssh-kex-sha2-03. Circular Design: Fairphone Fairphone, has developed a fair and modular smartphone. View Other Options. 5 Cupcake (API 3) ; On April 27, 2009, the Android 1. E525-CD-DCDT12 Chauffeur Driver Services UK safety equipment northern auction venues Watch Bracelets carice loyd in northern ireland GIGS romford kangurek kao keygen maker designer boys clothes motor world woodchip dorset teak garden furniture www. Type UserList and press Enter. the following codes appear in the 'dialog' box within your FTP program. An intruder is able to enter your computer through open and accessible ports. DIN A2 is 420x594 mm = 16. Wallet Dat Index Of After the first encryption, any calls that interact with private keys will require the passphrase via walletpassphrase prior to calling the corresponding method. of wallet filetype:dat intitle:index. CUE extension. html Ed hardy fabric. divx-mp3-portable-audio-cd-player. navy career counselor job description. 99 PayPal Mac AppStore PRO Also Available. jpg 09-Dec-2012 12:16 3. Save the file to the same folder as the BIN file. bak ( will search the index backup password. 8 BTC" I forgot password to wallet. Index of /~helot/salsa. The Most beneficent Vacation Destinations and b & b places that you can apply oneself to out to. Set all the options available and the output file will be in the same directory as index. it replicate the exe on that host & start the encryption. How to profit illegally from Bitcoin … cybercrime and much more. Anonymous Sun May 31 15:10:11 2015 No. Personal Information. Change filename. zip: 2009-01-04 11. See what SPAM® Brand can do! Enjoy the best canned meat meals using easy recipes and a variety of delicious, high-quality SPAM® meat. Keyword: intitle:Admin Administrasi Keyword tersebut akan mencari judul halaman "Admin" dengan deskripsi "Administrasi" 2. OPERATOR SPESIAL. The most valuable dimes are measured by such standards as condition, rarity and date of the coins, and can be worth in excess of $2 million. Navigation. jpg 2007-SEP-19 02:23:41 172k. png 18-May-2005 19:26 1. of wallet filetype:dat intitle:index. iSuperAwesome) submitted 2 years ago * by iSuperAwesome--- Text ELI5s ---How wallets work. RainbowCrack uses time-memory tradeoff algorithm to crack hashes. It is due to this trust and faith (plus the financial and deep track record) that I hold the Trade Bits team in high regard. if you are looking reality of a charming vacation with your group or friends you should look at some of those places. Anonymous Sun May 31 15:10:11 2015 No. It is important to make a backup copy of the private key and store it in a safe location. Creates a multi-signature address and returns a json object version 0. Index of /fax. net, outcast3k, api cashexplorer. Hacker News new | past | comments | ask | show | jobs | submit: login: 1. Activating Windows 8 can be a tough thing, Get tips for Activation of Windows 8 using CMD through this article. Convenience is key.